TVアニメ『ようこそ実力至上主義の教室へ 欢迎来到实力至上主义教室』OST原声集/音楽:高橋諒[320K]

OST 站长菌 11 0 0 编辑文章 删除文章 百度已收录
●衣笠彰梧×トモセシュンサク最新作がアニメ化! 希望する進学、就職先にほぼ100%応えるという高度育成高等学校。毎月10万円相当のポイントが支給され髪型や私物の持ち込みも自由。だがその正体は優秀な者が好待遇を受けられる実力至上主義の学校で……!?大反響の本作のOSTが登場。 ●音楽はVoid_Chordsでも活躍中の高橋 諒。 中二心をくすぐるサウンド満載でお届けします。 収録曲: Disc - 1 01.ようこそ実力至上主義の教室へ 02.まさに日常 03.何事もない朝の風景 04.ハーレムのような景色 05.他愛のない会話 06.高校生活! 07.ルール説明 08.憧れの女子 09.きらめく美少女 10.すべての女子は魔女である 11.Dクラス男子 12.愚かな人間ほど愛おしい 13.パニックが起こるとき 14.作戦開始の合図 15.にらみ合う瞳 16.さぐり、しのぶ 17.有線放送 18.カフェ・パレット 19.豪華客船 20.ラグジュアリ 21.舞台「イカロスの翼」 22.恋心に気付く 23.信頼こそが宝 24.そして、その想い 25.人生とは謎の連続だ Disc - 2 01.夕景の後ろ姿 02.ひとりの夜想曲 03.哲学者の戸惑い 04.人は分かり合えない 05.涙の色 06.冷徹なゲームの支配者 07.好戦的な曲者 08.過去との向き合い 09.ここにある事実 10.見えない理論 11.絡み合う意図 12.緊張と対立 13.差し迫る状況 14.瞬時の判断 15.暴力という力 16.弁論という力 17.信頼する仲間との連携 18.勝敗の道程 19.勝利の確信 20.カーストルーム (TV Size) / ZAQ 21.Beautiful Soldier (TV Size) / Minami LOG: Disc1
Exact Audio Copy V1.1 from 23. June 2015 EAC extraction logfile from 16. January 2018, 20:32 Unknown Artist / Unknown Title Used drive  : PIONEER BD-RW   BDR-209M   Adapter: 1  ID: 0 Read mode               : Secure Utilize accurate stream : Yes Defeat audio cache      : Yes Make use of C2 pointers : No Read offset correction                      : 667 Overread into Lead-In and Lead-Out          : No Fill up missing offset samples with silence : Yes Delete leading and trailing silent blocks   : No Null samples used in CRC calculations       : Yes Used interface                              : Native Win32 interface for Win NT & 2000 Used output format : Internal WAV Routines Sample format      : 44.100 Hz; 16 Bit; Stereo TOC of the extracted CD Track |   Start  |  Length  | Start sector | End sector --------------------------------------------------------- 1  |  0:00.00 |  3:27.39 |         0    |    15563 2  |  3:27.39 |  1:40.74 |     15564    |    23137 3  |  5:08.38 |  2:17.39 |     23138    |    33451 4  |  7:26.02 |  2:06.73 |     33452    |    42974 5  |  9:33.00 |  2:33.45 |     42975    |    54494 6  | 12:06.45 |  2:09.66 |     54495    |    64235 7  | 14:16.36 |  1:52.40 |     64236    |    72675 8  | 16:09.01 |  1:41.37 |     72676    |    80287 9  | 17:50.38 |  1:39.39 |     80288    |    87751 10  | 19:30.02 |  2:16.74 |     87752    |    98025 11  | 21:47.01 |  1:54.00 |     98026    |   106575 12  | 23:41.01 |  1:33.00 |    106576    |   113550 13  | 25:14.01 |  1:43.51 |    113551    |   121326 14  | 26:57.52 |  1:40.61 |    121327    |   128887 15  | 28:38.38 |  1:46.18 |    128888    |   136855 16  | 30:24.56 |  2:16.18 |    136856    |   147073 17  | 32:40.74 |  2:04.01 |    147074    |   156374 18  | 34:45.00 |  2:25.01 |    156375    |   167250 19  | 37:10.01 |  2:01.38 |    167251    |   176363 20  | 39:11.39 |  1:50.37 |    176364    |   184650 21  | 41:02.01 |  2:43.01 |    184651    |   196876 22  | 43:45.02 |  1:53.61 |    196877    |   205412 23  | 45:38.63 |  2:54.37 |    205413    |   218499 24  | 48:33.25 |  2:32.74 |    218500    |   229973 25  | 51:06.24 |  2:15.14 |    229974    |   240112 Range status and errors Selected range Filename E:UsersST30073Desktop抓LACA - 9544.wav Peak level 100.0 % Extraction speed 7.3 X Range quality 99.9 % Copy CRC 09056FE2 Copy OK No errors occurred AccurateRip summary Track  1  not present in database Track  2  not present in database Track  3  not present in database Track  4  not present in database Track  5  not present in database Track  6  not present in database Track  7  not present in database Track  8  not present in database Track  9  not present in database Track 10  not present in database Track 11  not present in database Track 12  not present in database Track 13  not present in database Track 14  not present in database Track 15  not present in database Track 16  not present in database Track 17  not present in database Track 18  not present in database Track 19  not present in database Track 20  not present in database Track 21  not present in database Track 22  not present in database Track 23  not present in database Track 24  not present in database Track 25  not present in database None of the tracks are present in the AccurateRip database End of status report ---- CUETools DB Plugin V2.1.6 [CTDB TOCID: wqGpQ49aFC4RI.I62qfLKDB7Mic-] disk not present in database Submit result: wqGpQ49aFC4RI.I62qfLKDB7Mic- has been uploaded ==== Log checksum 95EC2C67274D4BF683F8AD16E853D0AAE55E9672277EB899B257231A374DC97D ====
Disc2
Exact Audio Copy V1.1 from 23. June 2015 EAC extraction logfile from 16. January 2018, 21:05 Unknown Artist / Unknown Title Used drive  : PIONEER BD-RW   BDR-209M   Adapter: 1  ID: 0 Read mode               : Secure Utilize accurate stream : Yes Defeat audio cache      : Yes Make use of C2 pointers : No Read offset correction                      : 667 Overread into Lead-In and Lead-Out          : No Fill up missing offset samples with silence : Yes Delete leading and trailing silent blocks   : No Null samples used in CRC calculations       : Yes Used interface                              : Native Win32 interface for Win NT & 2000 Used output format : Internal WAV Routines Sample format      : 44.100 Hz; 16 Bit; Stereo TOC of the extracted CD Track |   Start  |  Length  | Start sector | End sector --------------------------------------------------------- 1  |  0:00.00 |  2:29.01 |         0    |    11175 2  |  2:29.01 |  2:16.74 |     11176    |    21449 3  |  4:46.00 |  2:28.41 |     21450    |    32590 4  |  7:14.41 |  2:20.43 |     32591    |    43133 5  |  9:35.09 |  3:06.65 |     43134    |    57148 6  | 12:41.74 |  1:34.41 |     57149    |    64239 7  | 14:16.40 |  1:38.35 |     64240    |    71624 8  | 15:55.00 |  1:31.03 |     71625    |    78452 9  | 17:26.03 |  2:26.36 |     78453    |    89438 10  | 19:52.39 |  2:09.74 |     89439    |    99187 11  | 22:02.38 |  2:45.00 |     99188    |   111562 12  | 24:47.38 |  2:17.16 |    111563    |   121853 13  | 27:04.54 |  2:24.60 |    121854    |   132713 14  | 29:29.39 |  2:51.00 |    132714    |   145538 15  | 32:20.39 |  2:12.00 |    145539    |   155438 16  | 34:32.39 |  2:08.63 |    155439    |   165101 17  | 36:41.27 |  2:23.52 |    165102    |   175878 18  | 39:05.04 |  2:44.73 |    175879    |   188251 19  | 41:50.02 |  2:14.73 |    188252    |   198374 20  | 44:05.00 |  1:34.16 |    198375    |   205440 21  | 45:39.16 |  1:32.59 |    205441    |   212399 Range status and errors Selected range Filename E:UsersST30073Desktop抓LACA - 9545.wav Peak level 100.0 % Extraction speed 7.0 X Range quality 99.9 % Copy CRC 94219040 Copy OK No errors occurred AccurateRip summary Track  1  not present in database Track  2  not present in database Track  3  not present in database Track  4  not present in database Track  5  not present in database Track  6  not present in database Track  7  not present in database Track  8  not present in database Track  9  not present in database Track 10  not present in database Track 11  not present in database Track 12  not present in database Track 13  not present in database Track 14  not present in database Track 15  not present in database Track 16  not present in database Track 17  not present in database Track 18  not present in database Track 19  not present in database Track 20  not present in database Track 21  not present in database None of the tracks are present in the AccurateRip database End of status report ---- CUETools DB Plugin V2.1.6 [CTDB TOCID: DLfL4VHUUzZ7pHBDlN6BRiaAkMM-] disk not present in database Submit result: DLfL4VHUUzZ7pHBDlN6BRiaAkMM- has been uploaded ==== Log checksum C9E416D941B25CFC8B73A352016683324EDBB6ECAA7BC893FBBAAB341E94714E ====
文章作者的链接:
热心网友的补链: